Чужой район (1-3 сезоны: 1-88 серии из 88) + Фильм о фильме [2012-2014, Детектив, SATRip] - Скачать торрент бесплатно

Чужой район

Модераторы: Модераторы Сериалы, мультсериалы, Союз Риперов

Чужой район
Поделиться ВКонтакте Поделиться Facebook Поделиться Twitter Поделиться Mail.RU
АвторСообщение
dm1805
Аватара пользователя
Гвардия Riper.AM
Гвардия Riper.AM
 
Раздал: 11.58 ПБ
Скачал: 1.52 ПБ
Ратио: 1926.844
Сообщения: 47082
Зарегистрирован: 20 апр 2010, 04:51
Награды: 64
За 100 сообщений (1) За 500 сообщений (1) За 1000 сообщений (1) За 1500 сообщений (1) За 2000 сообщений (1) За 3000 сообщений (1) 5 Тб отданного (1) 10 Тб отданного (1) 15 Тб отданного (1) 20 Тб отданного (1) 30 Тб отданного (1) 10 Тб скаченного (1) 15 Тб скаченного (1) 20 Тб скаченного (1) 30 Тб скаченного (1) 50 Тб скаченного (1) Размер созданных раздач 3 Тб (1) Размер созданных раздач 5 Тб (1) Размер созданных раздач 10 Тб (1) Размер созданных раздач 15 Тб (1) 250 релизов (1) 500 релизов (1) 1000 релизов (1) 1500 релизов (1) 2000 релизов (1) 3000 релизов (1) 5000 релизов (1) За новинки игр (1) За новинки фильмов (1) За новинки сериалов (1) За новинки ТВ-Шоу (1) За новинки Softa (1) За новинки музыки (1) За новинки книг (1) 1-е место (1) 2-е место (1) 3-е место (1) За 1000 сказанных спасибо (1) За 2000 сказанных спасибо (1) За 3000 сказанных спасибо (1) За 5000 сказанных спасибо (1) За 10000 сказанных спасибо (1) За 2000 полученных спасибо (1) За 4000 полученных спасибо (1) За 8000 полученных спасибо (1) За 10000 полученных спасибо (1) За 15000 полученных спасибо (1) 30 рипов (1) 50 рипов (1) 100 рипов (1) Особая награда (1) За вступление в группу VK (1) За вступление в Telegram (1) 200 кармы (1) 500 кармы (1) 1000 кармы (1) Халява №1 (1) Орден от Админа (1) Халява №2 (1) Заслуги перед сайтом (1) Халява №3 (1) Верный пользователь (1) Халява №4 (1) Халява №5 (1)

Сообщение dm1805 » 09 янв 2018, 20:23

Чужой район (1-3 сезоны: 1-88 серии из 88) + Фильм о фильме [2012-2014, Детектив, SATRip] - Скачать торрент

[hr]Страна: Россия / Триикс Медиа
Жанр: детектив, криминал
Год выпуска: 2011-2014
Продолжительность: 00:45:00 / серия
Перевод: Не требуется
Режиссер: Андрей Коршунов, Максим Бриус, Игорь Драка, Дмитрий Аверин, Богдан Дробязко
В ролях: Денис Рожков, Кирилл Полухин, Анна Лутцева, Вячеслав Аркунов, Сергей Колос, Зоя Буряк, Евгений Леонов-Гладышев, Екатерина Проскурина, Игорь Головин, Даниил Кокин, Алексей Нилов, Игорь Вуколов, Юрий Кузнецов, Юрий Архангельский, Вячеслав Аркунов, Алексей Одинг...

Описание: Сотрудник уголовного розыска Андрей Фролов разоблачил и обезвредил очередного преступника. На беду, тот оказывается внуком очень влиятельного человека. За это из боевых оперативников Андрея понизили до обычного участкового и доверили ему самый сложный в криминальном плане и очень нехороший район — окраину мегаполиса, бывший рабочий поселок со своими типичными «прелестями». Здесь царят свои суровые порядки, и каждый сам себе защитник. Жизнь района контролируют местный авторитет по кличке Сыч и его подельник Артур. Они и есть закон...



[hr]Качество: SATRip
Формат: AVI
Видео 1: 720x384 (1.85:1), 25.000 fps, XviD ~ 1800 kbps avg, 0.260 bit/pixel (первый сезон, второй сезон 1-13 серии)
Видео 2: 688x384 (16:9), 25.000 fps, XviD ~ 1800 kbps avg, 0.273 bit/pixel (второй сезон 14-32 серии)
Видео 3: 608x336 (16:9), 25.000 fps, XviD ~ 1800 kbps avg, 0.352 bit/pixel (третий сезон)
Аудио: 48 kHz, Dolby AC3, 2 ch, 192 kbps

Раздача от:

Чужой район 1: Сотрудник уголовного розыска Андрей Фролов — белая ворона. Ему не нравятся методы работы коллег, он не желает участвовать в допросах, которые ведутся с применением насилия и давления. После того как Андрей обезвредил преступника, который оказался внуком влиятельного лица, ему ставят ультиматум: он должен уйти из розыска по собственному желанию, или…
Андрей переводится в участковые, и по чьей-то «злой воле», ему доверяют самый сложный в криминальном плане, отдаленный район под названием «Молот» (Красный молот). Это микрорайон на окраине Мегаполиса, бывший рабочий поселок имени Красных Молотобойцев. До ближайшего метро — 15 минут маршруткой, которая ходит «раз в год по обещанию»…
Микрорайон с типичными прелестями спально-рабочих районов. Чем-то смахивает на Дикий Запад — здесь свои законы, каждый сам себе защитник. По сути, районом управляет Авторитет (здесь закон — это он). Жизнь в районе сурова, но в большинстве своём, его жители, несмотря на непритязательность и простоту, оказываются правильными и настоящими.

Чужой район 2: Приказ о переводе Фролова обратно опером в Центральный район уже практически подписан, и вот и зашёл Андрей прогуляться «на районе» да попрощаться с друзьями-товарищами, так и не смог вернуться. Точнее, вернуться-то удалось, а вот быть в нужном для службы состоянии — нет. И как назло комиссия из Москвы с проверкой пожаловала. Поэтому Фролов в центральном районе работать пока не будет, а вернется в Молот до лучших времен. Так Фролов снова оказался в «Чужом районе». Этому очень обрадовался начальник отделения Статюк. Этому не обрадовались Артур и Макаров. И весьма удивился Свистунов.

Чужой район 3: Следователи поспешили закрыть дело о покушении на участкового района Красный Молот капитана полиции Андрея Фролова, в результате которого был тяжело ранен его отец. Фролов подозревает, что организовал покушение его давний враг, бывший полицейский-оборотень Толя Дубинин. Но подозрения, как известно, к делу не пришьешь…
Между тем Фролов вновь готовится к переводу в уголовный розыск Центрального района, откуда он и был в свое время сослан на окраину Санкт-Петербурга, невольно перейдя дорогу влиятельному полицейскому генералу.
Но очередное столкновение с Дубининым и козни находящегося в розыске главы районной Администрации Александра Петрова вновь перечеркивают планы Андрея…
General
Format : AVI
Format/Info : Audio Video Interleave
File size : 640 MiB
Duration : 44mn 42s
Overall bit rate : 2 002 Kbps
Writing application : VirtualDubMod 1.5.10.3 | http://www.virtualdub-fr.org || (build 2550/release)
Writing library : VirtualDubMod build 2550/release

Video
ID : 0
Format : MPEG-4 Visual
Format profile : Advanced Simple@L5
Format settings, BVOP : 1
Format settings, QPel : No
Format settings, GMC : No warppoints
Format settings, Matrix : Custom
Codec ID : XVID
Codec ID/Hint : XviD
Duration : 44mn 42s
Bit rate : 1 800 Kbps
Width : 720 pixels
Height : 384 pixels
Display aspect ratio : 1.85:1
Frame rate : 25.000 fps
Color space : YUV
Chroma subsampling : 4:2:0
Bit depth : 8 bits
Scan type : Progressive
Compression mode : Lossy
Bits/(Pixel*Frame) : 0.260
Stream size : 576 MiB (90%)
Writing library : XviD 73

Audio
ID : 1
Format : AC-3
Format/Info : Audio Coding 3
Mode extension : CM (complete main)
Format settings, Endianness : Big
Codec ID : 2000
Duration : 44mn 42s
Bit rate mode : Constant
Bit rate : 192 Kbps
Channel(s) : 2 channels
Channel positions : Front: L R
Sampling rate : 48.0 KHz
Frame rate : 31.250 fps (1536 spf)
Compression mode : Lossy
Stream size : 61.4 MiB (10%)
Alignment : Split accross interleaves
Interleave, duration : 40 ms (1.00 video frame)
Interleave, preload duratio : 500 ms
General
Format : AVI
Format/Info : Audio Video Interleave
File size : 638 MiB
Duration : 44mn 32s
Overall bit rate : 2 002 Kbps
Writing application : VirtualDubMod 1.5.10.3 | http://www.virtualdub-fr.org || (build 2550/release)
Writing library : VirtualDubMod build 2550/release

Video
ID : 0
Format : MPEG-4 Visual
Format profile : Advanced Simple@L5
Format settings, BVOP : 1
Format settings, QPel : No
Format settings, GMC : No warppoints
Format settings, Matrix : Custom
Codec ID : XVID
Codec ID/Hint : XviD
Duration : 44mn 32s
Bit rate : 1 800 Kbps
Width : 688 pixels
Height : 384 pixels
Display aspect ratio : 16:9
Frame rate : 25.000 fps
Color space : YUV
Chroma subsampling : 4:2:0
Bit depth : 8 bits
Scan type : Progressive
Compression mode : Lossy
Bits/(Pixel*Frame) : 0.273
Stream size : 573 MiB (90%)
Writing library : XviD 73

Audio
ID : 1
Format : AC-3
Format/Info : Audio Coding 3
Mode extension : CM (complete main)
Format settings, Endianness : Big
Codec ID : 2000
Duration : 44mn 32s
Bit rate mode : Constant
Bit rate : 192 Kbps
Channel(s) : 2 channels
Channel positions : Front: L R
Sampling rate : 48.0 KHz
Frame rate : 31.250 fps (1536 spf)
Compression mode : Lossy
Stream size : 61.2 MiB (10%)
Alignment : Split accross interleaves
Interleave, duration : 40 ms (1.00 video frame)
Interleave, preload duratio : 500 ms
General
Format : AVI
Format/Info : Audio Video Interleave
File size : 630 MiB
Duration : 43mn 58s
Overall bit rate : 2 002 Kbps
Writing application : VirtualDubMod 1.5.10.3 | http://www.virtualdub-fr.org || (build 2550/release)
Writing library : VirtualDubMod build 2550/release

Video
ID : 0
Format : MPEG-4 Visual
Format profile : Advanced Simple@L5
Format settings, BVOP : 1
Format settings, QPel : No
Format settings, GMC : No warppoints
Format settings, Matrix : Custom
Codec ID : XVID
Codec ID/Hint : XviD
Duration : 43mn 58s
Bit rate : 1 800 Kbps
Width : 608 pixels
Height : 336 pixels
Display aspect ratio : 16:9
Frame rate : 25.000 fps
Color space : YUV
Chroma subsampling : 4:2:0
Bit depth : 8 bits
Scan type : Progressive
Compression mode : Lossy
Bits/(Pixel*Frame) : 0.352
Stream size : 566 MiB (90%)
Writing library : XviD 73

Audio
ID : 1
Format : AC-3
Format/Info : Audio Coding 3
Mode extension : CM (complete main)
Format settings, Endianness : Big
Codec ID : 2000
Duration : 43mn 58s
Bit rate mode : Constant
Bit rate : 192 Kbps
Channel(s) : 2 channels
Channel positions : Front: L R
Sampling rate : 48.0 KHz
Frame rate : 31.250 fps (1536 spf)
Compression mode : Lossy
Stream size : 60.4 MiB (10%)
Alignment : Split accross interleaves
Interleave, duration : 40 ms (1.00 video frame)
Interleave, preload duratio : 500 ms

Как качать, Как раздавать - Правила и инструкции
Торрент12 ноя 2018, 07:48 [ 12 ноя 2018, 07:48 ]

СКАЧАТЬ с просмотром рекламы
Статус-
.torrent скачан173 раз
Размер56.29 ГБ (60 437 272 576)
*ripernokzНе верь глазам своим, сиды есть всегда. Раздача мультитрекерная!! *ripernokz

Медалькодрочеры, кому продать медальки, вороне -=Robbertta=-?

Twixik

Аватара пользователя
Старожил
Старожил
 

Сообщения: 2399

Зарегистрирован: 28 май 2011, 17:05

Откуда: Россия, Питер

Награды: 13
За 100 сообщений (1) За 500 сообщений (1) За 1000 сообщений (1) За 1500 сообщений (1) За 2000 сообщений (1) 5 Тб отданного (1) За 1000 сказанных спасибо (1) За 2000 сказанных спасибо (1) За 3000 сказанных спасибо (1) 200 кармы (1) 500 кармы (1) 1000 кармы (1) Халява №5 (1)

Сообщение Twixik» 09 янв 2018, 21:12

классный, смешной сериал

leonidg52

Аватара пользователя
Пользователь
Пользователь
 

Сообщения: 76

Зарегистрирован: 21 апр 2012, 22:03

Награды: 1
За 100 сообщений (1)

Сообщение leonidg52» 09 янв 2018, 21:30

Сериал с иронией. Сделано добротно и с настроением. Смотрится легко.


Вернуться в Чужой район



Кто сейчас на конференции

Сейчас этот форум просматривают: нет зарегистрированных пользователей

Ресурс не предоставляет электронные версии произведений, а занимается лишь коллекционированием и каталогизацией ссылок, присылаемых и публикуемых на форуме нашими читателями. Если вы являетесь правообладателем какого-либо представленного материала и не желаете чтобы ссылка на него находилась в нашем каталоге, свяжитесь с нами и мы незамедлительно удалим её. Файлы для обмена на трекере предоставлены пользователями сайта, и администрация не несёт ответственности за их содержание. Просьба не заливать файлы, защищенные авторскими правами, а также файлы нелегального содержания!