Ослик, любовник и я / Cevennes [2020, Мелодрама, комедия, приключения, WEBRip-AVC | iTunes] - Скачать торрент бесплатно

Модераторы: Модераторы Фильмы, мультфильмы, Союз Риперов

АвторСообщение
vamo
Аватара пользователя
Модератор Фильмов
Модератор Фильмов
 
Раздал: 439.24 ТБ
Скачал: 52.88 ТБ
Ратио: 88.752
Сообщения: 2679
Зарегистрирован: 2012-05-06 05:02
Награды: 25
За 100 сообщений (1) За 500 сообщений (1) За 1000 сообщений (1) За 1500 сообщений (1) За 2000 сообщений (1) 5 Тб отданного (1) 10 Тб отданного (1) 15 Тб отданного (1) 20 Тб отданного (1) 30 Тб отданного (1) 10 Тб скаченного (1) 15 Тб скаченного (1) 20 Тб скаченного (1) 30 Тб скаченного (1) 50 Тб скаченного (1) 250 релизов (1) 500 релизов (1) За 2000 полученных спасибо (1) За 4000 полученных спасибо (1) За 8000 полученных спасибо (1) За 10000 полученных спасибо (1) За 15000 полученных спасибо (1) 200 кармы (1) 500 кармы (1) 1000 кармы (1)

Сообщение vamo » 2021-09-09 17:35

Ослик, любовник и я / Cevennes [2020, Мелодрама, комедия, приключения, WEBRip-AVC | iTunes] - Скачать торрент

Информация о фильме
Название: Ослик, любовник и я
Оригинальное название: Cevennes
Год выхода: 2020
Жанр: Мелодрама, комедия, приключения
Режиссер: Каролин Виньяль

В ролях: Лор Калами, Бенжамен Лаверн, Оливия Коте, Марк Фрез, Жан-Пьер Мартен, Луиз Видаль, Лусия Санчес, Максанс Туаль, Мари Ривьер, Франсуа Карон

О фильме: Антуанетта, учительница начальных классов, с нетерпением ждала выходных, чтобы провести их со своим любовником, отцом одного из учеников. Но вот незадача. У любовника оказалась жена, которая решила отправиться в путешествие по югу Франции как раз в эти дни. Отвергнутая девушка не сдается и следует за ними. Компанию ей составил ослик Патрик, который оказался мудрее и благородней некоторых мужчин.



Выпущено: Франция, Бельгия / Мелодрама, комедия, приключения
Продолжительность: 01:32:02
Перевод: Профессиональный (многоголосый закадровый) iTunes

Файл
Качество: WEBRip-AVC
Формат: MKV
Видео: MPEG-4 AVC, 2500 Кбит/сек, 1024x432
Аудио #1: Русский: AC3, 6 ch, 384 Кбит/сек
Субтитры: нет

Код: Выделить всё
 Общее
Уникальный идентификатор                 : 141166879610049489469155914684610343050 (0x6A33C086FB883FCEC800E7E6AA4B708A)
Полное имя                               : F:\ФИЛЬМЫ\1. ФИЛЬМЫ\Ослик, любовник и я  Cevennes\Oslik, lyubovnik i ya  Cevennes (2020) WEBRip-AVC  iTunes.mkv
Формат                                   : Matroska
Версия формата                           : Version 4
Размер файла                             : 1,86 Гбайт
Продолжительность                        : 1 ч. 32 м.
Общий поток                              : 2 887 Кбит/сек
Программа кодирования                    : Lavf
Библиотека кодирования                   : Lavf
Авторское право                          : CVAT  TV
ErrorDetectionType                       : Per level 1
Attachments                              : poster.jpg
Язык                                     : und

Видео
Идентификатор                            : 1
Формат                                   : AVC
Формат/Информация                        : Advanced Video Codec
Профиль формата                          : High@L4.1
Настройки формата                        : 11 Ref Frames
Параметр CABAC формата                   : Нет
Параметр RefFrames формата               : 11 кадров
Идентификатор кодека                     : V_MPEG4/ISO/AVC
Продолжительность                        : 1 ч. 32 м.
Битрейт                                  : 2 500 Кбит/сек
Ширина                                   : 1 024 пикселя
Высота                                   : 432 пикселя
Соотношение сторон                       : 2,40:1
Режим частоты кадров                     : Постоянный
Частота кадров                           : 25,000 кадров/сек
Цветовое пространство                    : YUV
Субдискретизация насыщенности            : 4:2:0
Битовая глубина                          : 8 бит
Тип развёртки                            : Прогрессивная
Бит/(Пиксели*Кадры)                      : 0.226
Размер потока                            : 1,57 Гбайт (85%)
Заголовок                                : France, Belgium (Melodrama, comedy, adventure)
Библиотека кодирования                   : x264 core 159 r2991 1771b55
Настройки программы                      : cabac=0 / ref=11 / deblock=1:-3:-3 / analyse=0x3:0x133 / me=umh / subme=11 / psy=1 / psy_rd=1.00:0.20 / mixed_ref=1 / me_range=32 / chroma_me=1 / trellis=2 / 8x8dct=1 / cqm=0 / deadzone=21,11 / fast_pskip=0 / chroma_qp_offset=-3 / threads=19 / lookahead_threads=1 / sliced_threads=0 / nr=0 / decimate=0 / interlaced=0 / bluray_compat=0 / constrained_intra=0 / bframes=11 / b_pyramid=2 / b_adapt=1 / b_bias=11 / direct=3 / weightb=1 / open_gop=1 / weightp=1 / keyint=250 / keyint_min=25 / scenecut=40 / intra_refresh=0 / rc=2pass / mbtree=0 / bitrate=2500 / ratetol=1.0 / qcomp=0.60 / qpmin=0 / qpmax=69 / qpstep=4 / cplxblur=20.0 / qblur=0.5 / ip_ratio=1.40 / pb_ratio=1.30 / aq=2:1.00
Язык                                     : French
Default                                  : Да
Forced                                   : Нет
Цветовой диапазон                        : Limited
Основные цвета                           : BT.709
Характеристики трансфера                 : BT.709
Коэффициенты матрицы                     : BT.709

Аудио
Идентификатор                            : 2
Формат                                   : AC-3
Формат/Информация                        : Audio Coding 3
Коммерческое название                    : Dolby Digital
Идентификатор кодека                     : A_AC3
Продолжительность                        : 1 ч. 32 м.
Вид битрейта                             : Постоянный
Битрейт                                  : 384 Кбит/сек
Каналы                                   : 6 каналов
Channel layout                           : L R C LFE Ls Rs
Частота                                  : 48,0 КГц
Частота кадров                           : 31,250 кадров/сек (1536 SPF)
Битовая глубина                          : 32 бит
Метод сжатия                             : С потерями
Размер потока                            : 253 Мбайт (13%)
Заголовок                                : MVO (iTunes)
Язык                                     : Russian
Service kind                             : Complete Main
Default                                  : Да
Forced                                   : Нет
 



Как качать, Как раздавать - Правила и инструкции
Торрент2021-09-09 17:35 [ 2021-09-09 17:35 ]
СтатусПроверен
.torrent скачан0 раз
Размер1.86 ГБ (1 993 228 846)

Вернуться в Зарубежные фильмы после 2000го года...



Кто сейчас на конференции

Сейчас этот форум просматривают: Bing [Bot], Google Feedfetcher

Ресурс не предоставляет электронные версии произведений, а занимается лишь коллекционированием и каталогизацией ссылок, присылаемых и публикуемых на форуме нашими читателями. Если вы являетесь правообладателем какого-либо представленного материала и не желаете чтобы ссылка на него находилась в нашем каталоге, свяжитесь с нами и мы незамедлительно удалим её. Файлы для обмена на трекере предоставлены пользователями сайта, и администрация не несёт ответственности за их содержание. Просьба не заливать файлы, защищенные авторскими правами, а также файлы нелегального содержания!